<?xml version="1.0" standalone="no"?>
<!DOCTYPE svg PUBLIC "-//W3C//DTD SVG 1.1//EN" "http://www.w3.org/Graphics/SVG/1.1/DTD/svg11.dtd">
<svg xmlns="http://www.w3.org/2000/svg">
<defs >
<font id="Ubuntu" horiz-adv-x="643" ><font-face
    font-family="Ubuntu"
    units-per-em="1000"
    panose-1="2 11 8 4 3 6 2 3 2 4"
    ascent="932"
    descent="-189"
    alphabetic="0" />
<glyph unicode=" " glyph-name="space" horiz-adv-x="240" />
<glyph unicode="!" glyph-name="exclam" horiz-adv-x="286" d="M223 514Q223 433 217 363T201 221H87Q77 293 71 363T64 514V693H223V514ZM236 79Q236 35 208 11T143 -13Q107 -13 79 11T50 79Q50 123 78 147T143 171Q179 171 207 147T236 79Z" />
<glyph unicode="&quot;" glyph-name="quotedbl" horiz-adv-x="465" d="M197 760V686Q197 638 190 581T173 466H74Q63 524 57 581T50 687V760H197ZM415 760V686Q415 638 408 581T391 466H292Q281 524 275 581T268 687V760H415Z" />
<glyph unicode="#" glyph-name="numbersign" horiz-adv-x="699" d="M325 523H441L474 693H604L571 523H644V408H549L525 285H644V170H503L471 0H341L373 170H257L225 0H95L127 170H55V285H149L173 408H55V523H195L228 693H358L325 523ZM279 285H395L419 408H303L279 285Z" />
<glyph unicode="$" glyph-name="dollar" horiz-adv-x="568" d="M221 10Q148 16 103 32T35 60L78 175Q113 158 161 144T264 130Q325 130 347 146T370 193Q370 212 361 225T335 250T292 271T232 294Q199 306 168 320T111 356T70 407T54 481Q54 514 63 544T93 600T145
642T221 668V776H347V672Q399 667 436 657T496 637L465 517Q432 531 389 541T297 551Q249 551 228 535T207 493Q207 477 213 466T234 445T268 428T318 409Q362 393 399 374T464 331T507 273T523 196Q523 166 514 137T484 82T430 39T347 13V-109H221V10Z" />
<glyph unicode="%" glyph-name="percent" horiz-adv-x="918" d="M389 515Q389 421 341 371T212 321Q131 321 83 371T35 515Q35 609 83 659T212 709Q293 709 341 659T389 515ZM276 515Q276 566 258 589T212 612Q183 612 166 589T148 515Q148 464 165 441T212 417Q240
417 258 440T276 515ZM584 693H723L332 0H193L584 693ZM883 178Q883 84 835 34T706 -16Q625 -16 577 34T529 178Q529 272 577 322T706 372Q787 372 835 322T883 178ZM770 178Q770 229 752 252T706 275Q677 275 660 252T642 178Q642 127 659 104T706 80Q734 80 752
103T770 178Z" />
<glyph unicode="&amp;" glyph-name="ampersand" horiz-adv-x="705" d="M35 184Q35 222 46 253T75 310T118 355T170 390Q146 419 127 452T108 526Q108 614 161 661T307 709Q354 709 389 697T447 663T483 613T495 551Q495 490 461 443T373 363L485 251Q494 271 502
301T513 355L637 339Q635 320 630 298T618 252T601 206T580 164Q612 128 642 86T695 0H542Q534 13 520 32T492 66Q452 34 399 13T280 -9Q210 -9 163 8T88 53T47 115T35 184ZM174 199Q174 184 180 168T199 139T234 117T285 108Q327 108 358 119T411 148L251 309Q237
302 224 292T199 269T181 238T174 199ZM368 544Q368 567 353 585T303 603Q271 603 254 584T236 533Q236 507 251 483T290 436Q322 454 345 479T368 544Z" />
<glyph unicode="&apos;" glyph-name="quotesingle" horiz-adv-x="247" d="M197 760V686Q197 638 190 581T173 466H74Q63 524 57 581T50 687V760H197Z" />
<glyph unicode="(" glyph-name="parenleft" horiz-adv-x="356" d="M217 299Q217 181 254 74T351 -118L247 -185Q162 -86 116 37T70 299Q70 438 116 561T247 783L351 716Q291 631 254 524T217 299Z" />
<glyph unicode=")" glyph-name="parenright" horiz-adv-x="356" d="M139 299Q139 417 102 524T5 716L109 783Q194 684 240 561T286 299Q286 160 240 37T109 -185L5 -118Q65 -33 102 74T139 299Z" />
<glyph unicode="*" glyph-name="asterisk" horiz-adv-x="502" d="M283 536Q293 545 308 555T338 576T370 595T398 608L422 616L462 492L438 484Q425 480 408 478T372 476T335 475T303 475Q315 467 329 457T358 435T386 411T407 388L423 367L317 292L302 312Q294
322 287 338T272 371T260 406T251 437Q247 423 242 406T230 372T216 338T200 312L185 292L79 367L95 388Q103 399 116 411T143 434T172 456T199 475Q185 475 167 475T130 475T94 478T64 484L40 492L80 616L104 608Q116 604 132 596T163 577T193 556T219 536Q214
549 209 566T198 602T190 637T186 668V693H316V668Q316 655 313 638T304 602T294 567T283 536Z" />
<glyph unicode="+" glyph-name="plus" horiz-adv-x="568" d="M49 361H216V546H352V361H519V236H352V51H216V236H49V361Z" />
<glyph unicode="," glyph-name="comma" horiz-adv-x="246" d="M211 152Q213 128 213 118T214 101Q214 71 209 38T193 -30T168 -98T134 -163L17 -134Q40 -68 49 -10T58 86Q58 92 58 101T57 121T56 140T55 152H211Z" />
<glyph unicode="-" glyph-name="hyphen" horiz-adv-x="340" d="M25 366H315V231H25V366Z" />
<glyph unicode="." glyph-name="period" horiz-adv-x="246" d="M216 79Q216 34 188 11T123 -13Q87 -13 59 10T30 79Q30 124 58 147T123 171Q159 171 187 148T216 79Z" />
<glyph unicode="/" glyph-name="slash" horiz-adv-x="437" d="M128 -185H-25L311 783H462L128 -185Z" />
<glyph unicode="0" glyph-name="zero" horiz-adv-x="568" d="M534 348Q534 173 468 80T284 -14Q167 -14 101 79T34 348Q34 435 51 502T102 615T181 685T284 709Q401 709 467 616T534 348ZM382 348Q382 400 377 442T361 516T331 564T284 581Q256 581 238 564T208
516T191 443T186 348Q186 296 191 253T207 179T237 131T284 114Q312 114 331 131T361 179T377 253T382 348Z" />
<glyph unicode="1" glyph-name="one" horiz-adv-x="568" d="M70 549Q99 561 130 576T192 610T249 649T299 693H403V0H254V499Q224 479 187 463T115 434L70 549Z" />
<glyph unicode="2" glyph-name="two" horiz-adv-x="568" d="M496 511Q496 473 481 438T442 371T388 308T329 251Q314 237 297 220T263 184T235 151T219 125H517V0H55Q53 11 53 28T53 52Q53 100 68 140T109 214T165 279T228 339Q252 362 273 382T310 422T335 461T344
501Q344 545 319 563T257 581Q230 581 207 573T164 553T130 530T109 511L35 615Q79 656 137 682T263 709Q324 709 368 695T440 656T482 594T496 511Z" />
<glyph unicode="3" glyph-name="three" horiz-adv-x="568" d="M228 -15Q201 -15 171 -12T113 -2T62 11T26 24L55 148Q81 137 121 125T222 112Q291 112 323 138T355 208Q355 235 344 253T312 283T265 299T206 304H148V424H214Q236 424 256 428T293 441T318 467T328
509Q328 528 320 542T300 565T271 578T237 583Q194 583 158 570T91 538L38 647Q54 657 75 668T123 688T178 703T241 709Q302 709 346 695T420 654T463 592T477 514Q477 473 454 435T392 376Q446 354 475 311T505 206Q505 158 489 118T439 48T353 2T228 -15Z" />
<glyph unicode="4" glyph-name="four" horiz-adv-x="568" d="M319 511Q280 460 236 400T162 277H319V511ZM465 693V277H539V155H465V0H319V155H20V264Q42 308 75 363T148 477T234 592T324 693H465Z" />
<glyph unicode="5" glyph-name="five" horiz-adv-x="568" d="M360 204Q360 233 347 255T302 293T216 316T80 324Q91 417 98 513T109 693H484V568H234Q232 532 230 499T224 440Q370 430 439 372T509 209Q509 161 492 120T441 49T356 2T235 -15Q208 -15 179 -12T122
-3T72 9T38 21L65 144Q90 133 131 123T229 112Q298 112 329 139T360 204Z" />
<glyph unicode="6" glyph-name="six" horiz-adv-x="568" d="M274 326Q252 326 227 322T188 311Q188 307 188 299T187 285Q187 249 192 217T209 161T241 124T291 110Q316 110 333 120T362 147T379 182T385 220Q385 271 360 298T274 326ZM293 442Q358 442 403 425T478
377T520 307T533 222Q533 182 519 140T475 64T400 8T292 -14Q167 -14 102 65T37 283Q37 383 68 460T156 589T295 669T479 698Q481 667 483 638T487 576Q436 575 392 567T311 540T247 494T205 424Q227 434 250 438T293 442Z" />
<glyph unicode="7" glyph-name="seven" horiz-adv-x="568" d="M142 0Q148 73 167 152T213 307T275 450T344 567H43V694H528V586Q496 551 458 489T385 349T325 180T293 0H142Z" />
<glyph unicode="8" glyph-name="eight" horiz-adv-x="568" d="M530 193Q530 148 515 111T468 45T391 2T283 -14Q213 -14 167 5T92 54T51 117T39 181Q39 211 47 236T69 281T100 319T138 351Q95 386 75 420T54 507Q54 547 70 584T117 648T189 692T284 709Q345 709
388 692T460 647T500 587T513 520Q513 472 488 431T424 365Q481 328 505 288T530 193ZM184 187Q184 175 189 161T207 134T238 114T284 106Q336 106 360 131T384 187Q384 210 374 228T345 259T303 283T250 303Q222 282 203 254T184 187ZM369 516Q369 527 365 539T350
563T323 581T284 589Q262 589 246 582T220 564T204 539T199 514Q199 482 222 454T303 406Q335 426 352 452T369 516Z" />
<glyph unicode="9" glyph-name="nine" horiz-adv-x="568" d="M289 372Q312 372 337 376T374 389V398Q374 402 374 406T375 413Q374 449 369 480T352 535T320 572T269 586Q245 586 227 576T198 550T182 515T176 478Q176 424 202 398T289 372ZM362 275Q341 265 316
261T272 256Q207 256 161 271T86 315T42 384T28 472Q28 512 41 554T84 630T157 687T265 710Q394 710 459 631T525 402Q525 304 500 229T421 103T284 26T87 -2Q86 30 84 60T80 122Q137 123 183 130T264 155T323 202T362 275Z" />
<glyph unicode=":" glyph-name="colon" horiz-adv-x="246" d="M216 434Q216 389 188 366T123 342Q87 342 59 365T30 434Q30 479 58 502T123 526Q159 526 187 503T216 434ZM216 79Q216 34 188 11T123 -13Q87 -13 59 10T30 79Q30 124 58 147T123 171Q159 171 187
148T216 79Z" />
<glyph unicode=";" glyph-name="semicolon" horiz-adv-x="246" d="M216 434Q216 389 188 366T123 342Q87 342 59 365T30 434Q30 479 58 502T123 526Q159 526 187 503T216 434ZM211 152Q213 128 213 118T214 101Q214 71 209 38T193 -30T168 -98T134 -163L17 -134Q40
-68 49 -10T58 86Q58 92 58 101T57 121T56 140T55 152H211Z" />
<glyph unicode="&lt;" glyph-name="less" horiz-adv-x="568" d="M50 361L480 542L519 421L205 299L519 177L480 56L50 237V361Z" />
<glyph unicode="=" glyph-name="equal" horiz-adv-x="568" d="M49 251H519V126H49V251ZM49 470H519V345H49V470Z" />
<glyph unicode="&gt;" glyph-name="greater" horiz-adv-x="568" d="M518 237L88 56L49 177L363 299L49 421L88 542L518 361V237Z" />
<glyph unicode="?" glyph-name="question" horiz-adv-x="455" d="M201 582Q165 582 133 573T62 544L20 657Q59 682 112 695T216 709Q280 709 321 692T387 649T420 592T430 533Q430 505 422 482T400 438T370 400T337 366Q325 354 312 341T289 312T271 281T264 247Q264
243 264 235T265 221H133Q131 231 131 243T130 265Q130 293 137 315T155 357T182 394T213 427Q236 450 255 472T274 524Q274 548 256 565T201 582ZM294 79Q294 35 266 11T201 -13Q165 -13 137 11T108 79Q108 123 136 147T201 171Q237 171 265 147T294 79Z" />
<glyph unicode="@" glyph-name="at" horiz-adv-x="974" d="M701 28Q672 28 643 35T595 60Q551 29 484 29Q434 29 393 44T322 91T276 167T259 273Q259 324 275 368T324 444T402 496T508 515Q567 515 612 505T688 483V169Q688 146 697 138T725 130Q741 130 756 139T783
171T801 235T808 338Q808 400 787 451T725 539T626 596T493 617Q422 617 363 593T260 525T192 416T167 272Q167 189 191 127T259 22T367 -41T511 -63Q561 -63 605 -57T680 -44L695 -138Q670 -146 619 -155T511 -164Q415 -164 331 -139T185 -61T86 74T50 272Q50
383 88 466T188 606T329 690T493 718Q585 718 664 693T800 618T891 497T924 330Q924 257 909 201T864 106T793 48T701 28ZM560 147Q558 155 557 170T556 200V404Q536 408 514 408Q481 408 458 398T421 369T401 327T394 273Q394 244 399 220T416 177T450 149T502
138Q520 138 536 140T560 147Z" />
<glyph unicode="A" glyph-name="A" horiz-adv-x="721" d="M544 0Q533 36 520 74T493 150H223Q210 112 197 74T172 0H10Q49 112 84 207T152 386T218 545T286 693H435Q469 621 502 546T568 386T637 207T711 0H544ZM357 536Q352 521 342 495T319 435T291 360T259
274H456Q440 319 425 360T397 435T373 495T357 536Z" />
<glyph unicode="B" glyph-name="B" horiz-adv-x="672" d="M311 -9Q254 -9 198 -6T80 11V683Q128 692 185 696T291 701Q357 701 412 692T508 659T570 599T593 506Q593 423 513 375Q579 350 603 307T627 210Q627 101 548 46T311 -9ZM232 302V123Q249 121 269 120T313
119Q383 119 426 139T469 213Q469 261 433 281T330 302H232ZM232 421H308Q380 421 411 439T442 499Q442 541 410 558T316 575Q296 575 273 575T232 572V421Z" />
<glyph unicode="C" glyph-name="C" horiz-adv-x="648" d="M396 -14Q227 -14 139 80T50 347Q50 433 77 500T151 614T263 685T404 709Q448 709 484 703T547 688T592 670T618 656L573 530Q541 547 499 559T402 571Q366 571 332 559T271 521T228 452T212 350Q212 302
222 261T256 189T318 142T410 124Q444 124 471 128T519 137T556 150T585 163L628 38Q595 18 535 2T396 -14Z" />
<glyph unicode="D" glyph-name="D" horiz-adv-x="737" d="M236 127Q247 126 261 126T296 125Q413 125 469 184T526 347Q526 456 472 512T301 568Q285 568 268 568T236 565V127ZM687 347Q687 257 659 190T580 79T454 13T288 -9Q246 -9 190 -6T80 9V684Q134 694
192 697T293 701Q382 701 454 681T579 618T659 508T687 347Z" />
<glyph unicode="E" glyph-name="E" horiz-adv-x="606" d="M80 0V693H548V562H236V426H513V298H236V131H571V0H80Z" />
<glyph unicode="F" glyph-name="F" horiz-adv-x="574" d="M80 0V693H544V562H236V417H510V286H236V0H80Z" />
<glyph unicode="G" glyph-name="G" horiz-adv-x="702" d="M418 573Q309 573 261 513T212 347Q212 296 224 255T260 183T320 137T404 120Q430 120 448 121T481 125V366H637V23Q609 12 547 0T394 -13Q316 -13 253 11T144 81T75 194T50 347Q50 434 77 501T151 614T261
685T397 709Q446 709 485 703T553 688T600 670T627 656L582 531Q550 548 509 560T418 573Z" />
<glyph unicode="H" glyph-name="H" horiz-adv-x="734" d="M498 693H654V0H498V294H236V0H80V693H236V428H498V693Z" />
<glyph unicode="I" glyph-name="I" horiz-adv-x="316" d="M80 693H236V0H80V693Z" />
<glyph unicode="J" glyph-name="J" horiz-adv-x="529" d="M459 233Q459 182 448 137T408 59T331 6T208 -14Q140 -14 91 2T10 41L62 162Q91 145 124 132T196 119Q253 119 278 147T303 241V693H459V233Z" />
<glyph unicode="K" glyph-name="K" horiz-adv-x="684" d="M489 0Q468 34 440 73T378 152T308 228T236 293V0H80V693H236V431Q297 495 358 564T473 693H658Q587 609 516 531T365 374Q448 305 525 210T674 0H489Z" />
<glyph unicode="L" glyph-name="L" horiz-adv-x="563" d="M543 134V0H80V693H236V134H543Z" />
<glyph unicode="M" glyph-name="M" horiz-adv-x="897" d="M264 693Q282 660 305 612T354 507T405 391T452 280Q474 332 499 391T549 506T598 611T640 693H782Q792 624 800 539T815 361T827 175T837 0H685Q682 101 677 220T662 460Q644 418 622 367T579 265T537
168T503 88H394Q380 121 360 167T319 265T275 367T235 460Q225 339 220 220T212 0H60Q64 82 69 175T81 360T96 538T115 693H264Z" />
<glyph unicode="N" glyph-name="N" horiz-adv-x="756" d="M545 0Q478 119 400 235T234 454V0H80V693H207Q240 660 280 612T361 510T444 397T521 284V693H676V0H545Z" />
<glyph unicode="O" glyph-name="O" horiz-adv-x="790" d="M211 347Q211 296 223 255T259 185T317 139T395 123Q438 123 472 139T530 184T566 255T579 347Q579 398 567 439T531 510T473 556T395 572Q351 572 317 556T260 510T224 439T211 347ZM740 347Q740 258
714 191T641 78T532 9T395 -14Q324 -14 261 9T151 77T77 190T50 347Q50 436 78 503T153 617T263 686T395 709Q466 709 529 686T639 617T713 504T740 347Z" />
<glyph unicode="P" glyph-name="P" horiz-adv-x="644" d="M288 701Q443 701 526 647T609 468Q609 343 525 288T285 232H236V0H80V683Q131 693 188 697T288 701ZM298 568Q281 568 265 567T236 565V365H285Q366 365 407 387T448 469Q448 498 438 517T408 547T360
563T298 568Z" />
<glyph unicode="Q" glyph-name="Q" horiz-adv-x="790" d="M211 347Q211 296 223 255T259 185T317 139T395 123Q438 123 472 139T530 184T566 255T579 347Q579 398 567 439T531 510T473 556T395 572Q351 572 317 556T260 510T224 439T211 347ZM740 347Q740 274
722 216T672 113T594 40T495 -2Q500 -22 517 -34T560 -55T620 -67T695 -74L663 -188Q585 -185 530 -173T436 -138T375 -84T340 -10Q278 -2 225 24T133 96T72 204T50 347Q50 436 78 503T153 617T263 686T395 709Q466 709 529 686T639 617T713 504T740 347Z" />
<glyph unicode="R" glyph-name="R" horiz-adv-x="667" d="M283 701Q439 701 522 646T605 473Q605 400 572 355T475 283Q496 257 519 224T564 154T608 78T647 0H472Q453 34 434 69T394 137T353 199T313 253H236V0H80V683Q131 693 185 697T283 701ZM292 568Q275
568 262 567T236 565V377H280Q368 377 406 399T444 474Q444 525 406 546T292 568Z" />
<glyph unicode="S" glyph-name="S" horiz-adv-x="582" d="M269 119Q302 119 323 124T358 139T376 162T381 191Q381 225 349 247T239 296Q205 308 171 323T110 362T66 419T49 501Q49 549 67 587T118 653T198 694T304 709Q374 709 425 694T509 661L464 538Q435 553
400 564T314 576Q258 576 234 561T209 513Q209 494 218 481T243 458T281 439T329 421Q383 401 423 382T489 336T529 275T542 190Q542 93 474 40T269 -14Q223 -14 186 -9T121 5T72 22T37 39L81 163Q112 146 157 133T269 119Z" />
<glyph unicode="T" glyph-name="T" horiz-adv-x="614" d="M594 693V560H385V0H229V560H20V693H594Z" />
<glyph unicode="U" glyph-name="U" horiz-adv-x="707" d="M351 -14Q278 -14 225 6T138 63T87 150T70 262V693H226V275Q226 233 235 204T261 156T301 129T353 121Q410 121 445 156T481 275V693H637V262Q637 201 620 150T568 63T479 6T351 -14Z" />
<glyph unicode="V" glyph-name="V" horiz-adv-x="722" d="M286 0Q245 87 205 181T129 367T63 543T10 693H182Q202 633 225 564T273 425T321 293T364 184Q383 230 406 293T454 425T502 563T546 693H712Q689 627 659 543T593 367T517 181T436 0H286Z" />
<glyph unicode="W" glyph-name="W" horiz-adv-x="948" d="M545 619Q557 578 571 527T602 420T636 310T669 208Q682 259 695 319T721 443T744 570T766 693H928Q893 519 848 340T749 0H606Q571 96 538 201T473 413Q441 307 409 202T342 0H199Q146 161 101 340T20
693H189Q199 634 211 571T236 443T262 319T290 208Q308 257 325 312T358 422T387 528T412 619H545Z" />
<glyph unicode="X" glyph-name="X" horiz-adv-x="675" d="M478 0Q449 58 415 117T335 239Q321 221 300 189T257 121T216 52T188 0H10Q54 81 112 170T243 359L20 693H209L344 477L476 693H654L434 357Q518 248 575 156T665 0H478Z" />
<glyph unicode="Y" glyph-name="Y" horiz-adv-x="661" d="M334 408Q376 479 414 550T484 693H656Q599 581 538 476T409 265V0H253V263Q185 369 124 475T5 693H186Q218 621 255 550T334 408Z" />
<glyph unicode="Z" glyph-name="Z" horiz-adv-x="610" d="M569 585Q537 552 493 500T402 385T309 257T227 131H580V0H35V93Q63 144 103 206T188 332T277 455T362 562H51V693H569V585Z" />
<glyph unicode="[" glyph-name="bracketleft" horiz-adv-x="371" d="M90 783H361V664H232V-66H361V-185H90V783Z" />
<glyph unicode="\" glyph-name="backslash" horiz-adv-x="437" d="M-25 783H126L462 -185H309L-25 783Z" />
<glyph unicode="]" glyph-name="bracketright" horiz-adv-x="371" d="M281 -185H10V-66H139V664H10V783H281V-185Z" />
<glyph unicode="^" glyph-name="asciicircum" horiz-adv-x="568" d="M550 350L425 289L284 534L143 289L18 350L225 697H343L550 350Z" />
<glyph unicode="_" glyph-name="underscore" horiz-adv-x="500" d="M0 -61H500V-185H0V-61Z" />
<glyph unicode="`" glyph-name="grave" horiz-adv-x="286" d="M111 799L253 637L185 576L20 715L111 799Z" />
<glyph unicode="a" glyph-name="a" horiz-adv-x="553" d="M271 104Q293 104 313 105T345 108V221Q336 223 318 225T285 227Q264 227 246 225T213 215T191 196T183 166Q183 131 206 118T271 104ZM259 540Q325 540 369 525T439 482T477 414T488 325V15Q456 8 399
-1T261 -11Q210 -11 169 -2T97 27T51 81T35 162Q35 208 53 240T103 291T174 318T257 327Q286 327 308 325T345 318V332Q345 370 322 393T242 416Q204 416 167 411T103 395L84 515Q97 519 116 523T159 531T207 537T259 540Z" />
<glyph unicode="b" glyph-name="b" horiz-adv-x="604" d="M407 267Q407 411 301 411Q278 411 256 405T219 390V119Q230 117 247 116T284 114Q345 114 376 156T407 267ZM559 263Q559 200 541 149T487 62T401 7T285 -13Q258 -13 229 -11T171 -4T116 5T70 17V752L219
776V514Q244 525 271 531T329 537Q385 537 428 518T500 462T544 376T559 263Z" />
<glyph unicode="c" glyph-name="c" horiz-adv-x="500" d="M45 263Q45 320 63 370T117 458T202 518T316 540Q358 540 393 533T461 511L430 392Q409 400 384 406T328 412Q262 412 230 371T197 263Q197 192 227 153T334 114Q361 114 392 119T449 135L470 13Q444 2
405 -6T319 -14Q247 -14 195 7T110 66T61 153T45 263Z" />
<glyph unicode="d" glyph-name="d" horiz-adv-x="604" d="M197 267Q197 198 228 156T320 114Q340 114 357 115T385 119V390Q371 399 349 405T303 411Q197 411 197 267ZM534 17Q514 11 488 6T434 -4T376 -10T319 -13Q254 -13 203 6T117 60T64 146T45 260Q45 324
61 375T107 463T180 518T280 537Q311 537 335 531T385 514V752L534 776V17Z" />
<glyph unicode="e" glyph-name="e" horiz-adv-x="584" d="M45 259Q45 329 66 381T123 469T203 522T297 540Q409 540 474 472T539 270Q539 257 538 242T536 214H198Q203 168 241 141T343 114Q384 114 423 121T488 140L508 19Q496 13 476 7T432 -3T379 -11T323 -14Q252
-14 200 7T113 64T62 151T45 259ZM395 316Q394 335 389 353T372 385T343 408T299 417Q274 417 256 409T226 386T208 354T198 316H395Z" />
<glyph unicode="f" glyph-name="f" horiz-adv-x="422" d="M298 776Q340 776 375 768T429 751L400 632Q380 641 357 645T313 650Q286 650 268 643T239 622T224 591T219 552V526H403V402H219V0H70V554Q70 656 127 716T298 776Z" />
<glyph unicode="g" glyph-name="g" horiz-adv-x="594" d="M197 280Q197 155 298 155Q321 155 341 161T375 175V413Q364 415 349 416T314 418Q255 418 226 379T197 280ZM524 66Q524 -63 459 -125T256 -188Q208 -188 160 -180T71 -157L97 -32Q132 -46 170 -54T258
-62Q322 -62 348 -34T375 38V57Q351 46 326 41T270 35Q161 35 103 99T45 280Q45 338 63 385T115 467T200 519T313 538Q340 538 368 536T425 529T478 520T524 508V66Z" />
<glyph unicode="h" glyph-name="h" horiz-adv-x="589" d="M70 0V752L219 776V524Q234 529 257 533T303 538Q367 538 409 521T477 471T513 395T524 297V0H375V279Q375 351 357 381T288 411Q268 411 251 408T219 400V0H70Z" />
<glyph unicode="i" glyph-name="i" horiz-adv-x="289" d="M219 0H70V526H219V0ZM233 678Q233 637 207 614T144 590Q108 590 82 613T55 678Q55 719 81 742T144 766Q180 766 206 743T233 678Z" />
<glyph unicode="j" glyph-name="j" horiz-adv-x="289" d="M21 -185Q7 -185 -20 -182T-72 -171L-52 -50Q-37 -55 -25 -57T7 -59Q42 -59 56 -38T70 23V526H219V19Q219 -85 168 -135T21 -185ZM233 678Q233 637 207 614T144 590Q108 590 82 613T55 678Q55 719 81 742T144
766Q180 766 206 743T233 678Z" />
<glyph unicode="k" glyph-name="k" horiz-adv-x="579" d="M219 336Q241 360 264 386T310 437T351 486T385 526H562Q509 465 459 410T348 295Q378 268 410 231T472 153T527 73T569 0H398Q382 26 362 57T318 120T270 181T219 230V0H70V752L219 776V336Z" />
<glyph unicode="l" glyph-name="l" horiz-adv-x="316" d="M280 -10Q215 -9 175 4T111 40T79 97T70 173V752L219 776V203Q219 183 222 167T233 140T258 122T301 113L280 -10Z" />
<glyph unicode="m" glyph-name="m" horiz-adv-x="862" d="M359 279Q359 351 341 381T277 411Q263 411 248 410T219 406V0H70V508Q89 513 114 518T168 528T227 535T286 538Q343 538 378 524T437 489Q469 512 510 525T587 538Q650 538 690 521T755 471T788 395T797
297V0H648V279Q648 351 630 381T566 411Q554 411 533 405T497 390Q504 367 506 342T508 287V0H359V279Z" />
<glyph unicode="n" glyph-name="n" horiz-adv-x="589" d="M70 508Q108 519 168 528T294 538Q361 538 405 521T476 471T513 395T524 297V0H375V279Q375 351 356 381T285 411Q269 411 251 410T219 406V0H70V508Z" />
<glyph unicode="o" glyph-name="o" horiz-adv-x="607" d="M562 264Q562 202 544 151T492 63T411 6T304 -14Q246 -14 199 6T117 62T64 150T45 264Q45 326 64 377T118 464T200 520T304 540Q361 540 408 520T490 464T543 377T562 264ZM410 264Q410 333 383 372T304
412Q253 412 225 373T197 264Q197 195 225 155T304 114Q355 114 382 154T410 264Z" />
<glyph unicode="p" glyph-name="p" horiz-adv-x="604" d="M407 259Q407 328 376 369T284 411Q264 411 247 410T219 406V137Q233 128 255 122T301 116Q407 116 407 259ZM559 263Q559 202 544 152T500 66T428 10T329 -10Q298 -10 271 -4T219 13V-185H70V508Q90 514
116 519T170 529T228 535T285 538Q350 538 401 519T487 464T540 377T559 263Z" />
<glyph unicode="q" glyph-name="q" horiz-adv-x="604" d="M197 259Q197 116 303 116Q326 116 348 122T385 137V406Q374 408 357 409T320 411Q259 411 228 370T197 259ZM45 263Q45 324 63 374T117 461T203 518T319 538Q346 538 375 536T433 529T488 520T534 508V-185H385V13Q360
2 333 -4T275 -10Q163 -10 104 63T45 263Z" />
<glyph unicode="r" glyph-name="r" horiz-adv-x="422" d="M387 394Q367 399 340 404T282 410Q268 410 249 408T219 402V0H70V498Q110 512 164 524T286 537Q298 537 315 536T349 532T383 526T412 517L387 394Z" />
<glyph unicode="s" glyph-name="s" horiz-adv-x="485" d="M221 107Q262 107 279 115T296 146Q296 164 274 177T207 208Q172 221 144 235T95 268T64 315T53 380Q53 454 108 497T259 540Q307 540 351 532T421 513L395 397Q369 406 339 413T270 420Q200 420 200 381Q200
372 203 365T215 352T239 338T279 321Q328 303 360 286T410 248T436 202T444 144Q444 66 386 26T220 -14Q150 -14 104 -2T39 18L64 139Q102 124 142 116T221 107Z" />
<glyph unicode="t" glyph-name="t" horiz-adv-x="444" d="M65 657L214 681V526H393V402H214V217Q214 170 230 142T297 114Q321 114 346 118T393 131L414 15Q387 4 354 -4T273 -12Q212 -12 172 4T108 50T75 122T65 215V657Z" />
<glyph unicode="u" glyph-name="u" horiz-adv-x="589" d="M519 18Q481 7 421 -2T295 -12Q228 -12 184 6T113 56T76 134T65 233V526H214V251Q214 179 233 147T304 115Q320 115 338 116T370 120V526H519V18Z" />
<glyph unicode="v" glyph-name="v" horiz-adv-x="550" d="M213 0Q162 100 110 234T10 526H168Q178 487 191 442T219 350T248 259T277 179Q290 215 305 259T334 349T362 441T386 526H540Q493 368 441 234T337 0H213Z" />
<glyph unicode="w" glyph-name="w" horiz-adv-x="784" d="M390 302Q370 226 348 151T300 0H184Q166 42 145 100T102 226T56 371T10 526H167Q175 490 184 448T204 360T226 270T250 182Q263 226 275 272T299 362T321 448T340 526H448Q456 490 466 449T487 363T510
272T535 182Q547 224 559 269T581 360T601 447T619 526H774Q752 448 729 372T683 227T639 100T599 0H483Q458 76 434 151T390 302Z" />
<glyph unicode="x" glyph-name="x" horiz-adv-x="554" d="M279 366L383 526H537L357 273Q417 198 466 127T544 0H384Q376 15 364 37T337 84T306 133T273 178Q258 159 243 136T213 90T186 43T162 0H10Q22 25 43 59T88 129T140 202T193 271Q148 334 103 398T14 526H175L279
366Z" />
<glyph unicode="y" glyph-name="y" horiz-adv-x="547" d="M537 526Q492 374 443 241T336 -17Q315 -62 294 -93T248 -145T192 -175T118 -185Q83 -185 54 -179T5 -164L31 -45Q54 -53 72 -56T110 -59Q150 -59 171 -38T208 22Q157 122 106 246T10 526H168Q178 487
191 442T220 350T250 259T280 179Q293 215 307 259T334 349T360 441T383 526H537Z" />
<glyph unicode="z" glyph-name="z" horiz-adv-x="500" d="M465 426Q447 406 417 372T351 297T281 211T216 124H470V0H35V88Q56 124 85 165T147 249T212 330T271 402H47V526H465V426Z" />
<glyph unicode="{" glyph-name="braceleft" horiz-adv-x="371" d="M35 358Q80 358 100 384T120 452V603Q120 646 131 679T167 736T235 771T341 783H361V664H336Q291 664 276 644T260 582V449Q260 397 246 361T190 299Q232 273 246 237T260 149V16Q260 -26 275
-46T336 -66H361V-185H341Q278 -185 236 -173T168 -138T131 -82T120 -5V146Q120 188 100 214T35 240V358Z" />
<glyph unicode="|" glyph-name="bar" horiz-adv-x="322" d="M90 783H232V-185H90V783Z" />
<glyph unicode="}" glyph-name="braceright" horiz-adv-x="371" d="M336 240Q291 240 271 214T251 146V-5Q251 -48 240 -81T204 -138T136 -173T30 -185H10V-66H35Q80 -66 95 -46T111 16V149Q111 201 125 237T181 299Q139 325 125 361T111 449V582Q111 624 96 644T35
664H10V783H30Q93 783 135 771T203 736T240 680T251 603V452Q251 410 271 384T336 358V240Z" />
<glyph unicode="~" glyph-name="asciitilde" horiz-adv-x="568" d="M386 196Q356 196 330 208T279 234T232 260T187 272Q179 272 171 270T154 261T139 239T125 199L23 227Q28 255 39 286T68 343T115 386T182 403Q212 403 238 391T289 365T336 339T381 327Q389
327 397 329T414 338T429 360T443 400L545 372Q540 344 529 313T499 256T453 213T386 196Z" />
<glyph unicode="&#xa0;" glyph-name="uni00A0" horiz-adv-x="240" />
<glyph unicode="&#xa1;" glyph-name="exclamdown" horiz-adv-x="286" d="M223 -180H64V4Q64 85 70 155T87 297H201Q211 225 217 155T223 4V-180ZM236 434Q236 390 208 366T143 342Q107 342 79 366T50 434Q50 478 78 502T143 526Q179 526 207 502T236 434Z" />
<glyph unicode="&#xa2;" glyph-name="cent" horiz-adv-x="568" d="M224 37Q132 62 89 131T45 293Q45 337 57 377T92 451T149 508T224 546V692H366V557Q392 553 415 547T462 531L429 412Q408 420 384 426T328 432Q265 432 231 395T197 293Q197 225 229 190T334
154Q361 154 392 159T449 175L470 53Q450 45 424 39T366 28V-109H224V37Z" />
<glyph unicode="&#xa3;" glyph-name="sterling" horiz-adv-x="568" d="M255 394H421V273H255Q254 238 251 198T242 125H503V0H78Q96 80 102 148T110 273H23V394H110V447Q110 522 128 571T177 651T253 693T349 706Q389 706 424 698T492 676L455 559Q432 570 412
575T362 581Q338 581 319 576T285 557T263 519T255 459V394Z" />
<glyph unicode="&#xa4;" glyph-name="currency" horiz-adv-x="568" d="M284 544Q309 544 331 540T376 526L450 597L543 506L471 437Q492 398 492 347Q492 296 471 257L543 188L449 96L375 168Q354 158 332 154T284 150Q259 150 237 154T192 168L118 97L25 188L97
257Q76 296 76 347Q76 398 97 437L25 506L119 598L193 526Q214 536 236 540T284 544ZM366 347Q366 390 342 412T284 434Q250 434 226 412T202 347Q202 304 226 282T284 260Q318 260 342 282T366 347Z" />
<glyph unicode="&#xa5;" glyph-name="yen" horiz-adv-x="568" d="M209 0V111H61V210H209V275H61V374H161Q140 412 117 454T72 538T30 620T-5 693H165Q196 624 224 555T287 419Q320 485 347 555T404 693H573Q535 616 495 536T408 374H508V275H360V210H508V111H360V0H209Z" />
<glyph unicode="&#xa6;" glyph-name="brokenbar" horiz-adv-x="302" d="M80 212H222V-185H80V212ZM80 783H222V386H80V783Z" />
<glyph unicode="&#xa7;" glyph-name="section" horiz-adv-x="515" d="M65 54Q88 45 108 38T149 27T192 20T241 17Q278 17 297 25T316 55Q316 65 312 72T298 87T270 101T225 117Q186 130 152 144T92 180T52 232T37 308Q37 355 59 387T114 450Q66 490 66 546Q66
623 122 666T285 709Q331 709 379 699T467 673L430 553Q398 567 364 575T284 583Q246 583 231 575T215 549Q215 528 232 516T294 488Q338 473 373 457T432 420T469 370T482 300Q482 278 477 261T463 228T439 199T408 169Q439 146 452 119T465 54Q465 -109 249 -109Q172
-109 118 -96T28 -65L65 54ZM208 384Q192 370 182 353T171 319Q171 281 204 261T307 218Q323 232 333 249T344 283Q344 302 336 315T311 340T268 362T208 384Z" />
<glyph unicode="&#xa8;" glyph-name="dieresis" horiz-adv-x="536" d="M156 602Q125 602 102 622T79 678Q79 713 102 733T156 754Q187 754 210 734T233 678Q233 643 210 623T156 602ZM379 602Q348 602 325 622T302 678Q302 713 325 733T379 754Q410 754 433 734T456
678Q456 643 433 623T379 602Z" />
<glyph unicode="&#xa9;" glyph-name="copyright" horiz-adv-x="796" d="M746 347Q746 262 718 195T641 81T530 10T398 -15Q329 -15 266 9T155 80T79 194T50 347Q50 432 78 499T155 613T266 684T398 709Q467 709 530 685T641 614T717 500T746 347ZM644 347Q644
407 626 456T576 540T498 594T398 613Q344 613 299 594T221 540T170 456T152 347Q152 287 170 238T220 154T298 100T398 81Q452 81 497 100T575 154T626 238T644 347ZM414 160Q325 160 278 209T231 349Q231 439 280 488T411 537Q459 537 488 524T529 505L497 417Q483
425 466 430T420 436Q387 436 367 415T347 354Q347 336 350 320T361 291T383 270T420 262Q450 262 470 269T506 282L534 191Q521 184 490 172T414 160Z" />
<glyph unicode="&#xaa;" glyph-name="ordfeminine" horiz-adv-x="399" d="M200 393Q216 393 230 394T254 396V474Q247 476 234 477T210 479Q180 479 158 471T136 437Q136 411 153 402T200 393ZM191 708Q239 708 271 698T324 667T352 619T361 555V328Q338 323 295
316T193 308Q114 308 69 336T24 434Q24 468 37 490T73 527T126 547T190 553Q210 553 226 551T254 547V557Q254 585 237 600T179 616Q151 616 123 612T75 601L60 690Q79 696 116 702T191 708Z" />
<glyph unicode="&#xab;" glyph-name="guillemotleft" horiz-adv-x="597" d="M196 284L297 97L184 44L20 284L184 524L297 471L196 284ZM466 284L567 97L454 44L290 284L454 524L567 471L466 284Z" />
<glyph unicode="&#xac;" glyph-name="logicalnot" horiz-adv-x="568" d="M520 47H384V281H50V406H520V47Z" />
<glyph unicode="&#xad;" glyph-name="uni00AD" horiz-adv-x="340" d="M25 366H315V231H25V366Z" />
<glyph unicode="&#xae;" glyph-name="registered" horiz-adv-x="796" d="M746 347Q746 261 718 194T641 81T530 10T398 -15Q329 -15 266 9T155 80T79 194T50 347Q50 432 78 499T155 613T266 684T398 709Q467 709 530 685T641 614T717 500T746 347ZM644 347Q644
407 626 456T576 540T498 594T398 613Q344 613 299 594T221 540T170 456T152 347Q152 287 170 238T220 154T298 100T398 81Q452 81 497 100T575 154T626 238T644 347ZM459 177Q442 215 430 243T403 295H363V177H266V519Q300 527 329 530T381 534Q542 534 542 413Q542
351 488 322Q499 305 507 290T524 258T541 222T561 177H459ZM363 373H381Q413 373 429 381T445 414Q445 434 431 442T390 450Q383 450 376 450T363 448V373Z" />
<glyph unicode="&#xaf;" glyph-name="overscore" horiz-adv-x="376" d="M27 725H349V623H27V725Z" />
<glyph unicode="&#xb0;" glyph-name="degree" horiz-adv-x="363" d="M181 781Q213 781 242 771T294 740T329 691T342 626Q342 590 329 562T294 513T243 482T181 471Q149 471 120 481T68 512T33 561T20 626Q20 662 33 690T68 739T119 770T181 781ZM181 569Q202
569 219 584T236 626Q236 652 219 667T181 683Q160 683 143 668T126 626Q126 600 143 585T181 569Z" />
<glyph unicode="&#xb1;" glyph-name="plusminus" horiz-adv-x="568" d="M49 455H216V625H352V455H519V330H352V160H216V330H49V455ZM49 125H519V0H49V125Z" />
<glyph unicode="&#xb2;" glyph-name="twosuperior" horiz-adv-x="363" d="M312 586Q312 564 305 546T287 513T260 484T230 457Q213 443 195 426T166 393H322V302H35Q34 310 34 316T34 330Q34 379 60 418T138 501Q165 524 181 541T198 576Q198 591 189 600T163
609Q134 609 110 598T68 572L16 650Q42 672 82 690T168 709Q207 709 234 700T279 675T304 636T312 586Z" />
<glyph unicode="&#xb3;" glyph-name="threesuperior" horiz-adv-x="363" d="M149 388Q184 388 198 398T212 425Q212 466 142 466H101V548H142Q165 548 180 557T195 584Q195 616 151 616Q128 616 105 609T61 591L23 670Q48 686 85 697T159 709Q199 709 226 700T270
676T294 640T301 597Q301 576 292 557T259 520Q291 505 305 480T320 424Q320 397 311 373T282 332T230 304T150 294Q133 294 115 296T78 302T45 310T17 321L40 410Q74 396 97 392T149 388Z" />
<glyph unicode="&#xb4;" glyph-name="acute" horiz-adv-x="286" d="M259 715L94 576L26 637L168 799L259 715Z" />
<glyph unicode="&#xb5;" glyph-name="mu" horiz-adv-x="594" d="M219 526V244Q219 206 224 181T241 142T270 121T310 115Q326 115 343 116T375 120V526H524V18Q485 7 431 -1T313 -10Q287 -10 260 -5T214 9Q216 -11 217 -31T219 -89V-166H70V526H219Z" />
<glyph unicode="&#xb6;" glyph-name="paragraph" horiz-adv-x="710" d="M259 258Q147 273 94 324T40 476Q40 585 125 643T372 701Q403 701 437 699T506 694T572 686T630 675V-186H489V574Q475 576 449 577T401 578V-186H259V258Z" />
<glyph unicode="&#xb7;" glyph-name="middot" horiz-adv-x="246" d="M216 295Q216 250 188 227T123 203Q87 203 59 226T30 295Q30 340 58 363T123 387Q159 387 187 364T216 295Z" />
<glyph unicode="&#xb8;" glyph-name="cedilla" horiz-adv-x="326" d="M215 -40Q247 -56 259 -78T271 -123Q271 -171 234 -196T133 -221Q111 -221 89 -218T45 -208L63 -121Q70 -123 88 -127T125 -132Q139 -132 149 -127T161 -107Q162 -95 152 -85T118 -70L106 -67Q109
-57 114 -44T126 -19T137 4T145 20H244Q238 9 229 -9T215 -40Z" />
<glyph unicode="&#xb9;" glyph-name="onesuperior" horiz-adv-x="363" d="M38 618Q80 635 119 656T188 701H275V302H161V572Q141 561 120 552T69 531L38 618Z" />
<glyph unicode="&#xba;" glyph-name="ordmasculine" horiz-adv-x="457" d="M424 506Q424 459 410 422T370 360T308 320T229 306Q186 306 150 320T88 359T48 422T33 506Q33 554 47 591T88 655T150 695T229 709Q272 709 308 695T369 655T409 592T424 506ZM310 506Q310
554 289 581T229 609Q191 609 169 582T147 506Q147 461 168 434T229 406Q268 406 289 433T310 506Z" />
<glyph unicode="&#xbb;" glyph-name="guillemotright" horiz-adv-x="597" d="M30 471L143 524L307 284L143 44L30 97L131 284L30 471ZM300 471L413 524L577 284L413 44L300 97L401 284L300 471Z" />
<glyph unicode="&#xbc;" glyph-name="onequarter" horiz-adv-x="878" d="M276 618Q318 635 357 656T426 701H513V302H399V572Q379 561 358 552T307 531L276 618ZM678 693L323 0H185L542 693H678ZM816 401V170H862V87H816V1H722V87H535V159Q577 230 620 287T717
401H816ZM722 290Q699 264 679 235T640 170H722V290Z" />
<glyph unicode="&#xbd;" glyph-name="onehalf" horiz-adv-x="878" d="M276 618Q318 635 357 656T426 701H513V302H399V572Q379 561 358 552T307 531L276 618ZM650 693L295 0H157L514 693H650ZM827 286Q827 264 820 246T802 213T775 184T745 157Q728 143 710 126T681
93H837V2H550Q549 10 549 16T549 30Q549 79 575 118T653 201Q680 224 696 241T713 276Q713 291 704 300T678 309Q649 309 625 298T583 272L531 350Q557 372 597 390T683 409Q722 409 749 400T794 375T819 336T827 286Z" />
<glyph unicode="&#xbe;" glyph-name="threequarters" horiz-adv-x="878" d="M155 388Q190 388 204 398T218 425Q218 466 148 466H107V548H148Q171 548 186 557T201 584Q201 616 157 616Q134 616 111 609T67 591L29 670Q54 686 91 697T165 709Q205 709 232 700T276
676T300 640T307 597Q307 576 298 557T265 520Q297 505 311 480T326 424Q326 397 317 373T288 332T236 304T156 294Q139 294 121 296T84 302T51 310T23 321L46 410Q80 396 103 392T155 388ZM699 693L344 0H206L563 693H699ZM816 401V170H862V87H816V1H722V87H535V159Q577
230 620 287T717 401H816ZM722 290Q699 264 679 235T640 170H722V290Z" />
<glyph unicode="&#xbf;" glyph-name="questiondown" horiz-adv-x="455" d="M254 -70Q290 -70 322 -61T393 -32L435 -145Q396 -170 343 -183T239 -197Q175 -197 134 -180T68 -137T35 -80T25 -21Q25 7 33 30T55 74T84 112T118 146Q130 158 143 171T166 200T184 231T191
265Q191 269 191 277T190 291H322Q324 281 324 269T325 247Q325 219 318 196T300 154T273 118T242 85Q219 62 200 40T181 -12Q181 -36 199 -53T254 -70ZM161 433Q161 477 189 501T254 525Q290 525 318 501T347 433Q347 389 319 365T254 341Q218 341 190 365T161
433Z" />
<glyph unicode="&#xc0;" glyph-name="Agrave" horiz-adv-x="721" d="M544 0Q533 36 520 74T493 150H223Q210 112 197 74T172 0H10Q49 112 84 207T152 386T218 545T286 693H435Q469 621 502 546T568 386T637 207T711 0H544ZM357 536Q352 521 342 495T319 435T291
360T259 274H456Q440 319 425 360T397 435T373 495T357 536ZM328 959L470 797L402 736L237 875L328 959Z" />
<glyph unicode="&#xc1;" glyph-name="Aacute" horiz-adv-x="721" d="M544 0Q533 36 520 74T493 150H223Q210 112 197 74T172 0H10Q49 112 84 207T152 386T218 545T286 693H435Q469 621 502 546T568 386T637 207T711 0H544ZM357 536Q352 521 342 495T319 435T291
360T259 274H456Q440 319 425 360T397 435T373 495T357 536ZM476 875L311 736L243 797L385 959L476 875Z" />
<glyph unicode="&#xc2;" glyph-name="Acircumflex" horiz-adv-x="721" d="M544 0Q533 36 520 74T493 150H223Q210 112 197 74T172 0H10Q49 112 84 207T152 386T218 545T286 693H435Q469 621 502 546T568 386T637 207T711 0H544ZM357 536Q352 521 342 495T319 435T291
360T259 274H456Q440 319 425 360T397 435T373 495T357 536ZM515 811L460 745L360 822L260 745L203 811L360 948L515 811Z" />
<glyph unicode="&#xc3;" glyph-name="Atilde" horiz-adv-x="721" d="M544 0Q533 36 520 74T493 150H223Q210 112 197 74T172 0H10Q49 112 84 207T152 386T218 545T286 693H435Q469 621 502 546T568 386T637 207T711 0H544ZM357 536Q352 521 342 495T319 435T291
360T259 274H456Q440 319 425 360T397 435T373 495T357 536ZM548 872Q542 857 532 839T506 806T472 780T430 770Q412 770 397 775T366 787T336 799T305 805Q285 805 272 792T251 762L178 810Q184 825 194 843T220 876T254 902T296 912Q314 912 329 907T360 895T389
883T421 877Q441 877 454 890T475 920L548 872Z" />
<glyph unicode="&#xc4;" glyph-name="Adieresis" horiz-adv-x="721" d="M544 0Q533 36 520 74T493 150H223Q210 112 197 74T172 0H10Q49 112 84 207T152 386T218 545T286 693H435Q469 621 502 546T568 386T637 207T711 0H544ZM357 536Q352 521 342 495T319 435T291
360T259 274H456Q440 319 425 360T397 435T373 495T357 536ZM242 762Q211 762 188 782T165 838Q165 873 188 893T242 914Q273 914 296 894T319 838Q319 803 296 783T242 762ZM465 762Q434 762 411 782T388 838Q388 873 411 893T465 914Q496 914 519 894T542 838Q542
803 519 783T465 762Z" />
<glyph unicode="&#xc5;" glyph-name="Aring" horiz-adv-x="721" d="M544 0Q533 36 520 74T493 150H223Q210 112 197 74T172 0H10Q48 109 82 202T149 378T214 535T280 680Q263 695 253 716T243 767Q243 795 252 816T278 852T316 874T360 882Q384 882 405 875T443
853T469 817T479 767Q479 738 469 716T441 680Q474 609 506 535T571 379T638 203T711 0H544ZM357 536Q352 521 342 495T319 435T291 360T259 274H456Q440 319 425 360T397 435T373 495T357 536ZM406 767Q406 790 392 802T360 814Q343 814 329 802T315 767Q315 744
329 732T360 720Q378 720 392 732T406 767Z" />
<glyph unicode="&#xc6;" glyph-name="AE" horiz-adv-x="994" d="M490 164H270Q249 126 224 82T181 0H10Q132 219 237 390T436 693H936V562H641V426H901V298H641V131H959V0H490V164ZM490 542Q474 519 454 487T413 421T371 351T333 288H490V542Z" />
<glyph unicode="&#xc7;" glyph-name="Ccedilla" horiz-adv-x="648" d="M432 -13Q428 -21 425 -28T420 -40Q452 -56 464 -78T476 -123Q476 -171 438 -196T338 -221Q316 -221 294 -218T250 -208L268 -121Q275 -123 293 -127T330 -132Q344 -132 354 -127T366 -107Q367
-95 357 -85T323 -70L311 -67Q315 -55 321 -40T334 -10Q194 7 122 98T50 347Q50 433 77 500T151 614T263 685T404 709Q448 709 484 703T547 688T592 670T618 656L573 530Q541 547 499 559T402 571Q366 571 332 559T271 521T228 452T212 350Q212 302 222 261T256
189T318 142T410 124Q444 124 471 128T519 137T556 150T585 163L628 38Q599 20 549 6T432 -13Z" />
<glyph unicode="&#xc8;" glyph-name="Egrave" horiz-adv-x="606" d="M80 0V693H548V562H236V426H513V298H236V131H571V0H80ZM282 959L424 797L356 736L191 875L282 959Z" />
<glyph unicode="&#xc9;" glyph-name="Eacute" horiz-adv-x="606" d="M80 0V693H548V562H236V426H513V298H236V131H571V0H80ZM440 875L275 736L207 797L349 959L440 875Z" />
<glyph unicode="&#xca;" glyph-name="Ecircumflex" horiz-adv-x="606" d="M80 0V693H548V562H236V426H513V298H236V131H571V0H80ZM471 811L416 745L316 822L216 745L159 811L316 948L471 811Z" />
<glyph unicode="&#xcb;" glyph-name="Edieresis" horiz-adv-x="606" d="M80 0V693H548V562H236V426H513V298H236V131H571V0H80ZM200 762Q169 762 146 782T123 838Q123 873 146 893T200 914Q231 914 254 894T277 838Q277 803 254 783T200 762ZM423 762Q392 762
369 782T346 838Q346 873 369 893T423 914Q454 914 477 894T500 838Q500 803 477 783T423 762Z" />
<glyph unicode="&#xcc;" glyph-name="Igrave" horiz-adv-x="316" d="M80 693H236V0H80V693ZM126 959L268 797L200 736L35 875L126 959Z" />
<glyph unicode="&#xcd;" glyph-name="Iacute" horiz-adv-x="316" d="M80 693H236V0H80V693ZM283 875L118 736L50 797L192 959L283 875Z" />
<glyph unicode="&#xce;" glyph-name="Icircumflex" horiz-adv-x="316" d="M80 693H236V0H80V693ZM316 811L261 745L161 822L61 745L4 811L161 948L316 811Z" />
<glyph unicode="&#xcf;" glyph-name="Idieresis" horiz-adv-x="316" d="M80 693H236V0H80V693ZM49 762Q18 762 -5 782T-28 838Q-28 873 -5 893T49 914Q80 914 103 894T126 838Q126 803 103 783T49 762ZM272 762Q241 762 218 782T195 838Q195 873 218 893T272 914Q303
914 326 894T349 838Q349 803 326 783T272 762Z" />
<glyph unicode="&#xd0;" glyph-name="Eth" horiz-adv-x="748" d="M247 127Q258 126 272 126T307 125Q424 125 480 184T537 347Q537 456 483 512T312 568Q296 568 279 568T247 565V417H373V302H247V127ZM698 347Q698 257 670 190T591 79T465 13T299 -9Q257 -9 201
-6T91 9V302H10V417H91V684Q145 694 203 697T304 701Q393 701 465 681T590 618T670 508T698 347Z" />
<glyph unicode="&#xd1;" glyph-name="Ntilde" horiz-adv-x="756" d="M545 0Q478 119 400 235T234 454V0H80V693H207Q240 660 280 612T361 510T444 397T521 284V693H676V0H545ZM565 872Q559 857 549 839T523 806T489 780T447 770Q429 770 414 775T383 787T353 799T322
805Q302 805 289 792T268 762L195 810Q201 825 211 843T237 876T271 902T313 912Q331 912 346 907T377 895T406 883T438 877Q458 877 471 890T492 920L565 872Z" />
<glyph unicode="&#xd2;" glyph-name="Ograve" horiz-adv-x="790" d="M211 347Q211 296 223 255T259 185T317 139T395 123Q438 123 472 139T530 184T566 255T579 347Q579 398 567 439T531 510T473 556T395 572Q351 572 317 556T260 510T224 439T211 347ZM740 347Q740
258 714 191T641 78T532 9T395 -14Q324 -14 261 9T151 77T77 190T50 347Q50 436 78 503T153 617T263 686T395 709Q466 709 529 686T639 617T713 504T740 347ZM363 959L505 797L437 736L272 875L363 959Z" />
<glyph unicode="&#xd3;" glyph-name="Oacute" horiz-adv-x="790" d="M211 347Q211 296 223 255T259 185T317 139T395 123Q438 123 472 139T530 184T566 255T579 347Q579 398 567 439T531 510T473 556T395 572Q351 572 317 556T260 510T224 439T211 347ZM740 347Q740
258 714 191T641 78T532 9T395 -14Q324 -14 261 9T151 77T77 190T50 347Q50 436 78 503T153 617T263 686T395 709Q466 709 529 686T639 617T713 504T740 347ZM513 875L348 736L280 797L422 959L513 875Z" />
<glyph unicode="&#xd4;" glyph-name="Ocircumflex" horiz-adv-x="790" d="M211 347Q211 296 223 255T259 185T317 139T395 123Q438 123 472 139T530 184T566 255T579 347Q579 398 567 439T531 510T473 556T395 572Q351 572 317 556T260 510T224 439T211 347ZM740
347Q740 258 714 191T641 78T532 9T395 -14Q324 -14 261 9T151 77T77 190T50 347Q50 436 78 503T153 617T263 686T395 709Q466 709 529 686T639 617T713 504T740 347ZM551 811L496 745L396 822L296 745L239 811L396 948L551 811Z" />
<glyph unicode="&#xd5;" glyph-name="Otilde" horiz-adv-x="790" d="M211 347Q211 296 223 255T259 185T317 139T395 123Q438 123 472 139T530 184T566 255T579 347Q579 398 567 439T531 510T473 556T395 572Q351 572 317 556T260 510T224 439T211 347ZM740 347Q740
258 714 191T641 78T532 9T395 -14Q324 -14 261 9T151 77T77 190T50 347Q50 436 78 503T153 617T263 686T395 709Q466 709 529 686T639 617T713 504T740 347ZM582 872Q576 857 566 839T540 806T506 780T464 770Q446 770 431 775T400 787T370 799T339 805Q319 805
306 792T285 762L212 810Q218 825 228 843T254 876T288 902T330 912Q348 912 363 907T394 895T423 883T455 877Q475 877 488 890T509 920L582 872Z" />
<glyph unicode="&#xd6;" glyph-name="Odieresis" horiz-adv-x="790" d="M211 347Q211 296 223 255T259 185T317 139T395 123Q438 123 472 139T530 184T566 255T579 347Q579 398 567 439T531 510T473 556T395 572Q351 572 317 556T260 510T224 439T211 347ZM740
347Q740 258 714 191T641 78T532 9T395 -14Q324 -14 261 9T151 77T77 190T50 347Q50 436 78 503T153 617T263 686T395 709Q466 709 529 686T639 617T713 504T740 347ZM277 762Q246 762 223 782T200 838Q200 873 223 893T277 914Q308 914 331 894T354 838Q354 803
331 783T277 762ZM500 762Q469 762 446 782T423 838Q423 873 446 893T500 914Q531 914 554 894T577 838Q577 803 554 783T500 762Z" />
<glyph unicode="&#xd7;" glyph-name="multiply" horiz-adv-x="568" d="M420 522L507 435L371 299L507 164L420 77L284 213L149 77L62 164L198 299L62 435L149 522L284 386L420 522Z" />
<glyph unicode="&#xd8;" glyph-name="Oslash" horiz-adv-x="790" d="M740 347Q740 258 714 191T641 78T532 9T395 -14Q345 -14 300 -4T215 30L157 -45L72 18L133 96Q94 141 72 203T50 347Q50 436 78 503T153 617T263 686T395 709Q494 709 573 665L629 738L714
675L655 599Q695 554 717 491T740 347ZM579 347Q579 419 555 470L304 145Q345 123 395 123Q438 123 472 139T530 184T566 255T579 347ZM211 347Q211 278 234 227L484 550Q445 572 395 572Q351 572 317 556T260 510T224 439T211 347Z" />
<glyph unicode="&#xd9;" glyph-name="Ugrave" horiz-adv-x="707" d="M351 -14Q278 -14 225 6T138 63T87 150T70 262V693H226V275Q226 233 235 204T261 156T301 129T353 121Q410 121 445 156T481 275V693H637V262Q637 201 620 150T568 63T479 6T351 -14ZM301 959L443
797L375 736L210 875L301 959Z" />
<glyph unicode="&#xda;" glyph-name="Uacute" horiz-adv-x="707" d="M351 -14Q278 -14 225 6T138 63T87 150T70 262V693H226V275Q226 233 235 204T261 156T301 129T353 121Q410 121 445 156T481 275V693H637V262Q637 201 620 150T568 63T479 6T351 -14ZM489 875L324
736L256 797L398 959L489 875Z" />
<glyph unicode="&#xdb;" glyph-name="Ucircumflex" horiz-adv-x="707" d="M351 -14Q278 -14 225 6T138 63T87 150T70 262V693H226V275Q226 233 235 204T261 156T301 129T353 121Q410 121 445 156T481 275V693H637V262Q637 201 620 150T568 63T479 6T351 -14ZM508
811L453 745L353 822L253 745L196 811L353 948L508 811Z" />
<glyph unicode="&#xdc;" glyph-name="Udieresis" horiz-adv-x="707" d="M351 -14Q278 -14 225 6T138 63T87 150T70 262V693H226V275Q226 233 235 204T261 156T301 129T353 121Q410 121 445 156T481 275V693H637V262Q637 201 620 150T568 63T479 6T351 -14ZM242
762Q211 762 188 782T165 838Q165 873 188 893T242 914Q273 914 296 894T319 838Q319 803 296 783T242 762ZM465 762Q434 762 411 782T388 838Q388 873 411 893T465 914Q496 914 519 894T542 838Q542 803 519 783T465 762Z" />
<glyph unicode="&#xdd;" glyph-name="Yacute" horiz-adv-x="661" d="M334 408Q376 479 414 550T484 693H656Q599 581 538 476T409 265V0H253V263Q185 369 124 475T5 693H186Q218 621 255 550T334 408ZM471 875L306 736L238 797L380 959L471 875Z" />
<glyph unicode="&#xde;" glyph-name="Thorn" horiz-adv-x="644" d="M308 596Q374 596 429 584T525 543T587 471T609 364Q609 239 525 184T285 128H236V0H80V693H236V593Q243 594 253 594T273 595T292 596T308 596ZM298 464Q281 464 265 463T236 461V261H285Q366
261 407 283T448 365Q448 394 438 413T408 443T360 459T298 464Z" />
<glyph unicode="&#xdf;" glyph-name="germandbls" horiz-adv-x="659" d="M528 610Q528 568 520 543T491 495Q469 469 452 447T434 397Q434 382 442 371T463 350T493 330T531 309Q567 288 594 254T621 166Q621 80 572 34T410 -12Q355 -12 322 -2T269 16L294 136Q304
132 318 128T347 119T377 113T407 110Q474 110 474 164Q474 190 447 210T378 250Q349 263 332 278T305 309T293 343T290 378Q290 420 309 448T354 507Q371 527 380 544T389 587Q389 620 368 636T311 652Q263 652 240 622T216 536V0H70V533Q70 586 84 630T127 707T201
758T307 776Q365 776 407 763T476 727T515 674T528 610Z" />
<glyph unicode="&#xe0;" glyph-name="agrave" horiz-adv-x="553" d="M271 104Q293 104 313 105T345 108V221Q336 223 318 225T285 227Q264 227 246 225T213 215T191 196T183 166Q183 131 206 118T271 104ZM259 540Q325 540 369 525T439 482T477 414T488 325V15Q456
8 399 -1T261 -11Q210 -11 169 -2T97 27T51 81T35 162Q35 208 53 240T103 291T174 318T257 327Q286 327 308 325T345 318V332Q345 370 322 393T242 416Q204 416 167 411T103 395L84 515Q97 519 116 523T159 531T207 537T259 540ZM234 799L376 637L308 576L143 715L234
799Z" />
<glyph unicode="&#xe1;" glyph-name="aacute" horiz-adv-x="553" d="M271 104Q293 104 313 105T345 108V221Q336 223 318 225T285 227Q264 227 246 225T213 215T191 196T183 166Q183 131 206 118T271 104ZM259 540Q325 540 369 525T439 482T477 414T488 325V15Q456
8 399 -1T261 -11Q210 -11 169 -2T97 27T51 81T35 162Q35 208 53 240T103 291T174 318T257 327Q286 327 308 325T345 318V332Q345 370 322 393T242 416Q204 416 167 411T103 395L84 515Q97 519 116 523T159 531T207 537T259 540ZM397 715L232 576L164 637L306 799L397
715Z" />
<glyph unicode="&#xe2;" glyph-name="acircumflex" horiz-adv-x="553" d="M271 104Q293 104 313 105T345 108V221Q336 223 318 225T285 227Q264 227 246 225T213 215T191 196T183 166Q183 131 206 118T271 104ZM259 540Q325 540 369 525T439 482T477 414T488 325V15Q456
8 399 -1T261 -11Q210 -11 169 -2T97 27T51 81T35 162Q35 208 53 240T103 291T174 318T257 327Q286 327 308 325T345 318V332Q345 370 322 393T242 416Q204 416 167 411T103 395L84 515Q97 519 116 523T159 531T207 537T259 540ZM416 645L361 579L261 656L161 579L104
645L261 782L416 645Z" />
<glyph unicode="&#xe3;" glyph-name="atilde" horiz-adv-x="553" d="M271 104Q293 104 313 105T345 108V221Q336 223 318 225T285 227Q264 227 246 225T213 215T191 196T183 166Q183 131 206 118T271 104ZM259 540Q325 540 369 525T439 482T477 414T488 325V15Q456
8 399 -1T261 -11Q210 -11 169 -2T97 27T51 81T35 162Q35 208 53 240T103 291T174 318T257 327Q286 327 308 325T345 318V332Q345 370 322 393T242 416Q204 416 167 411T103 395L84 515Q97 519 116 523T159 531T207 537T259 540ZM455 709Q449 694 439 676T413 643T379
617T337 607Q319 607 304 612T273 624T243 636T212 642Q192 642 179 629T158 599L85 647Q91 662 101 680T127 713T161 739T203 749Q221 749 236 744T267 732T296 720T328 714Q348 714 361 727T382 757L455 709Z" />
<glyph unicode="&#xe4;" glyph-name="adieresis" horiz-adv-x="553" d="M271 104Q293 104 313 105T345 108V221Q336 223 318 225T285 227Q264 227 246 225T213 215T191 196T183 166Q183 131 206 118T271 104ZM259 540Q325 540 369 525T439 482T477 414T488 325V15Q456
8 399 -1T261 -11Q210 -11 169 -2T97 27T51 81T35 162Q35 208 53 240T103 291T174 318T257 327Q286 327 308 325T345 318V332Q345 370 322 393T242 416Q204 416 167 411T103 395L84 515Q97 519 116 523T159 531T207 537T259 540ZM410 602Q379 602 356 622T333 678Q333
713 356 733T410 754Q441 754 464 734T487 678Q487 643 464 623T410 602ZM633 602Q602 602 579 622T556 678Q556 713 579 733T633 754Q664 754 687 734T710 678Q710 643 687 623T633 602Z" />
<glyph unicode="&#xe5;" glyph-name="aring" horiz-adv-x="553" d="M271 104Q293 104 313 105T345 108V221Q336 223 318 225T285 227Q264 227 246 225T213 215T191 196T183 166Q183 131 206 118T271 104ZM259 540Q325 540 369 525T439 482T477 414T488 325V15Q456
8 399 -1T261 -11Q210 -11 169 -2T97 27T51 81T35 162Q35 208 53 240T103 291T174 318T257 327Q286 327 308 325T345 318V332Q345 370 322 393T242 416Q204 416 167 411T103 395L84 515Q97 519 116 523T159 531T207 537T259 540ZM395 699Q395 671 386 650T360 614T322
592T276 584Q253 584 232 591T195 613T169 649T159 699Q159 727 168 748T194 784T232 806T276 814Q300 814 321 807T359 785T385 749T395 699ZM322 699Q322 722 308 734T276 746Q259 746 245 734T231 699Q231 676 245 664T276 652Q294 652 308 664T322 699Z" />
<glyph unicode="&#xe6;" glyph-name="ae" horiz-adv-x="874" d="M259 540Q290 540 315 536T359 524T395 502T425 469Q459 507 502 523T594 540Q648 540 691 523T765 471T812 387T829 270Q829 257 828 242T826 214H488Q493 168 531 141T633 114Q674 114 713 121T778
140L798 19Q786 13 766 7T722 -3T669 -11T613 -14Q554 -14 510 -1T435 33Q360 -11 261 -11Q210 -11 169 -2T97 27T51 81T35 162Q35 208 53 240T103 291T174 318T257 327Q286 327 308 325T345 318V335Q345 373 322 394T242 416Q204 416 167 411T103 395L84 515Q97
519 116 523T159 531T207 537T259 540ZM271 104Q302 104 327 107T372 119Q358 155 353 177T347 223Q333 225 314 226T285 227Q264 227 246 225T213 215T191 196T183 166Q183 131 206 118T271 104ZM684 316Q683 335 678 353T661 385T632 408T588 417Q563 417 545
409T515 386T497 354T487 316H684Z" />
<glyph unicode="&#xe7;" glyph-name="ccedilla" horiz-adv-x="500" d="M328 -40Q360 -56 372 -78T384 -123Q384 -171 346 -196T246 -221Q224 -221 202 -218T158 -208L176 -121Q183 -123 201 -127T238 -132Q252 -132 262 -127T274 -107Q275 -95 265 -85T231 -70L219
-67Q223 -54 230 -38T244 -7Q192 3 155 27T93 87T57 168T45 263Q45 320 63 370T117 458T202 518T316 540Q358 540 393 533T461 511L430 392Q409 400 384 406T328 412Q262 412 230 371T197 263Q197 192 227 153T334 114Q361 114 392 119T449 135L470 13Q447 3 414
-4T340 -13Q336 -21 333 -28T328 -40Z" />
<glyph unicode="&#xe8;" glyph-name="egrave" horiz-adv-x="584" d="M45 259Q45 329 66 381T123 469T203 522T297 540Q409 540 474 472T539 270Q539 257 538 242T536 214H198Q203 168 241 141T343 114Q384 114 423 121T488 140L508 19Q496 13 476 7T432 -3T379
-11T323 -14Q252 -14 200 7T113 64T62 151T45 259ZM395 316Q394 335 389 353T372 385T343 408T299 417Q274 417 256 409T226 386T208 354T198 316H395ZM260 799L402 637L334 576L169 715L260 799Z" />
<glyph unicode="&#xe9;" glyph-name="eacute" horiz-adv-x="584" d="M45 259Q45 329 66 381T123 469T203 522T297 540Q409 540 474 472T539 270Q539 257 538 242T536 214H198Q203 168 241 141T343 114Q384 114 423 121T488 140L508 19Q496 13 476 7T432 -3T379
-11T323 -14Q252 -14 200 7T113 64T62 151T45 259ZM395 316Q394 335 389 353T372 385T343 408T299 417Q274 417 256 409T226 386T208 354T198 316H395ZM418 715L253 576L185 637L327 799L418 715Z" />
<glyph unicode="&#xea;" glyph-name="ecircumflex" horiz-adv-x="584" d="M45 259Q45 329 66 381T123 469T203 522T297 540Q409 540 474 472T539 270Q539 257 538 242T536 214H198Q203 168 241 141T343 114Q384 114 423 121T488 140L508 19Q496 13 476 7T432 -3T379
-11T323 -14Q252 -14 200 7T113 64T62 151T45 259ZM395 316Q394 335 389 353T372 385T343 408T299 417Q274 417 256 409T226 386T208 354T198 316H395ZM447 645L392 579L292 656L192 579L135 645L292 782L447 645Z" />
<glyph unicode="&#xeb;" glyph-name="edieresis" horiz-adv-x="584" d="M45 259Q45 329 66 381T123 469T203 522T297 540Q409 540 474 472T539 270Q539 257 538 242T536 214H198Q203 168 241 141T343 114Q384 114 423 121T488 140L508 19Q496 13 476 7T432 -3T379
-11T323 -14Q252 -14 200 7T113 64T62 151T45 259ZM395 316Q394 335 389 353T372 385T343 408T299 417Q274 417 256 409T226 386T208 354T198 316H395ZM186 602Q155 602 132 622T109 678Q109 713 132 733T186 754Q217 754 240 734T263 678Q263 643 240 623T186
602ZM409 602Q378 602 355 622T332 678Q332 713 355 733T409 754Q440 754 463 734T486 678Q486 643 463 623T409 602Z" />
<glyph unicode="&#xec;" glyph-name="igrave" horiz-adv-x="289" d="M219 0H70V526H219V0ZM113 799L255 637L187 576L22 715L113 799Z" />
<glyph unicode="&#xed;" glyph-name="iacute" horiz-adv-x="289" d="M219 0H70V526H219V0ZM274 715L109 576L41 637L183 799L274 715Z" />
<glyph unicode="&#xee;" glyph-name="icircumflex" horiz-adv-x="289" d="M219 0H70V526H219V0ZM558 645L503 579L403 656L303 579L246 645L403 782L558 645Z" />
<glyph unicode="&#xef;" glyph-name="idieresis" horiz-adv-x="289" d="M219 0H70V526H219V0ZM285 602Q254 602 231 622T208 678Q208 713 231 733T285 754Q316 754 339 734T362 678Q362 643 339 623T285 602ZM508 602Q477 602 454 622T431 678Q431 713 454 733T508
754Q539 754 562 734T585 678Q585 643 562 623T508 602Z" />
<glyph unicode="&#xf0;" glyph-name="eth" horiz-adv-x="601" d="M483 603Q518 543 538 473T558 324Q558 249 543 187T495 81T414 11T296 -14Q233 -14 186 6T108 59T61 138T45 234Q45 289 60 335T107 413T185 463T295 481Q321 481 349 474T398 456Q386 509 355
559L244 522L215 606L295 633Q278 650 259 665T220 694L303 780Q338 760 369 735T428 678L543 717L572 633L483 603ZM406 313Q406 315 406 319T405 329Q380 349 355 355T305 362Q273 362 252 352T218 325T200 285T195 236Q195 182 219 149T296 115Q329 115 350
131T384 175T401 239T406 313Z" />
<glyph unicode="&#xf1;" glyph-name="ntilde" horiz-adv-x="589" d="M70 508Q108 519 168 528T294 538Q361 538 405 521T476 471T513 395T524 297V0H375V279Q375 351 356 381T285 411Q269 411 251 410T219 406V0H70V508ZM482 709Q476 694 466 676T440 643T406
617T364 607Q346 607 331 612T300 624T270 636T239 642Q219 642 206 629T185 599L112 647Q118 662 128 680T154 713T188 739T230 749Q248 749 263 744T294 732T323 720T355 714Q375 714 388 727T409 757L482 709Z" />
<glyph unicode="&#xf2;" glyph-name="ograve" horiz-adv-x="607" d="M562 264Q562 202 544 151T492 63T411 6T304 -14Q246 -14 199 6T117 62T64 150T45 264Q45 326 64 377T118 464T200 520T304 540Q361 540 408 520T490 464T543 377T562 264ZM410 264Q410 333
383 372T304 412Q253 412 225 373T197 264Q197 195 225 155T304 114Q355 114 382 154T410 264ZM271 799L413 637L345 576L180 715L271 799Z" />
<glyph unicode="&#xf3;" glyph-name="oacute" horiz-adv-x="607" d="M562 264Q562 202 544 151T492 63T411 6T304 -14Q246 -14 199 6T117 62T64 150T45 264Q45 326 64 377T118 464T200 520T304 540Q361 540 408 520T490 464T543 377T562 264ZM410 264Q410 333
383 372T304 412Q253 412 225 373T197 264Q197 195 225 155T304 114Q355 114 382 154T410 264ZM427 715L262 576L194 637L336 799L427 715Z" />
<glyph unicode="&#xf4;" glyph-name="ocircumflex" horiz-adv-x="607" d="M562 264Q562 202 544 151T492 63T411 6T304 -14Q246 -14 199 6T117 62T64 150T45 264Q45 326 64 377T118 464T200 520T304 540Q361 540 408 520T490 464T543 377T562 264ZM410 264Q410
333 383 372T304 412Q253 412 225 373T197 264Q197 195 225 155T304 114Q355 114 382 154T410 264ZM458 645L403 579L303 656L203 579L146 645L303 782L458 645Z" />
<glyph unicode="&#xf5;" glyph-name="otilde" horiz-adv-x="607" d="M562 264Q562 202 544 151T492 63T411 6T304 -14Q246 -14 199 6T117 62T64 150T45 264Q45 326 64 377T118 464T200 520T304 540Q361 540 408 520T490 464T543 377T562 264ZM410 264Q410 333
383 372T304 412Q253 412 225 373T197 264Q197 195 225 155T304 114Q355 114 382 154T410 264ZM488 709Q482 694 472 676T446 643T412 617T370 607Q352 607 337 612T306 624T276 636T245 642Q225 642 212 629T191 599L118 647Q124 662 134 680T160 713T194 739T236
749Q254 749 269 744T300 732T329 720T361 714Q381 714 394 727T415 757L488 709Z" />
<glyph unicode="&#xf6;" glyph-name="odieresis" horiz-adv-x="607" d="M562 264Q562 202 544 151T492 63T411 6T304 -14Q246 -14 199 6T117 62T64 150T45 264Q45 326 64 377T118 464T200 520T304 540Q361 540 408 520T490 464T543 377T562 264ZM410 264Q410 333
383 372T304 412Q253 412 225 373T197 264Q197 195 225 155T304 114Q355 114 382 154T410 264ZM192 602Q161 602 138 622T115 678Q115 713 138 733T192 754Q223 754 246 734T269 678Q269 643 246 623T192 602ZM415 602Q384 602 361 622T338 678Q338 713 361 733T415
754Q446 754 469 734T492 678Q492 643 469 623T415 602Z" />
<glyph unicode="&#xf7;" glyph-name="divide" horiz-adv-x="568" d="M370 501Q370 459 344 438T285 417Q252 417 226 438T200 501Q200 543 226 564T285 585Q318 585 344 564T370 501ZM370 96Q370 54 344 33T285 12Q252 12 226 33T200 96Q200 138 226 159T285 180Q318
180 344 159T370 96ZM49 361H519V236H49V361Z" />
<glyph unicode="&#xf8;" glyph-name="oslash" horiz-adv-x="607" d="M562 264Q562 202 544 151T492 63T411 6T304 -14Q229 -14 170 20L125 -39L55 14L104 77Q75 113 60 160T45 264Q45 326 64 377T118 464T200 520T304 540Q341 540 374 532T435 507L481 566L551
513L502 450Q531 415 546 368T562 264ZM418 264Q418 298 410 330L249 121Q273 106 304 106Q358 106 388 148T418 264ZM189 264Q189 245 190 229T197 198L357 406Q334 420 304 420Q250 420 220 379T189 264Z" />
<glyph unicode="&#xf9;" glyph-name="ugrave" horiz-adv-x="589" d="M519 18Q481 7 421 -2T295 -12Q228 -12 184 6T113 56T76 134T65 233V526H214V251Q214 179 233 147T304 115Q320 115 338 116T370 120V526H519V18ZM239 799L381 637L313 576L148 715L239 799Z" />
<glyph unicode="&#xfa;" glyph-name="uacute" horiz-adv-x="589" d="M519 18Q481 7 421 -2T295 -12Q228 -12 184 6T113 56T76 134T65 233V526H214V251Q214 179 233 147T304 115Q320 115 338 116T370 120V526H519V18ZM420 715L255 576L187 637L329 799L420 715Z" />
<glyph unicode="&#xfb;" glyph-name="ucircumflex" horiz-adv-x="589" d="M519 18Q481 7 421 -2T295 -12Q228 -12 184 6T113 56T76 134T65 233V526H214V251Q214 179 233 147T304 115Q320 115 338 116T370 120V526H519V18ZM449 645L394 579L294 656L194 579L137
645L294 782L449 645Z" />
<glyph unicode="&#xfc;" glyph-name="udieresis" horiz-adv-x="589" d="M519 18Q481 7 421 -2T295 -12Q228 -12 184 6T113 56T76 134T65 233V526H214V251Q214 179 233 147T304 115Q320 115 338 116T370 120V526H519V18ZM181 602Q150 602 127 622T104 678Q104 713
127 733T181 754Q212 754 235 734T258 678Q258 643 235 623T181 602ZM404 602Q373 602 350 622T327 678Q327 713 350 733T404 754Q435 754 458 734T481 678Q481 643 458 623T404 602Z" />
<glyph unicode="&#xfd;" glyph-name="yacute" horiz-adv-x="547" d="M537 526Q492 374 443 241T336 -17Q315 -62 294 -93T248 -145T192 -175T118 -185Q83 -185 54 -179T5 -164L31 -45Q54 -53 72 -56T110 -59Q150 -59 171 -38T208 22Q157 122 106 246T10 526H168Q178
487 191 442T220 350T250 259T280 179Q293 215 307 259T334 349T360 441T383 526H537ZM430 715L265 576L197 637L339 799L430 715Z" />
<glyph unicode="&#xfe;" glyph-name="thorn" horiz-adv-x="604" d="M559 263Q559 202 544 152T500 66T428 10T329 -10Q298 -10 271 -4T219 13V-185H70V752L219 776V528Q236 533 257 535T294 538Q355 538 404 519T487 464T540 377T559 263ZM407 259Q407 328 377
369T289 411Q269 411 250 409T219 402V137Q233 128 255 122T301 116Q407 116 407 259Z" />
<glyph unicode="&#xff;" glyph-name="ydieresis" horiz-adv-x="547" d="M537 526Q492 374 443 241T336 -17Q315 -62 294 -93T248 -145T192 -175T118 -185Q83 -185 54 -179T5 -164L31 -45Q54 -53 72 -56T110 -59Q150 -59 171 -38T208 22Q157 122 106 246T10 526H168Q178
487 191 442T220 350T250 259T280 179Q293 215 307 259T334 349T360 441T383 526H537ZM165 602Q134 602 111 622T88 678Q88 713 111 733T165 754Q196 754 219 734T242 678Q242 643 219 623T165 602ZM388 602Q357 602 334 622T311 678Q311 713 334 733T388 754Q419
754 442 734T465 678Q465 643 442 623T388 602Z" />
<glyph unicode="&#x2013;" glyph-name="endash" horiz-adv-x="500" d="M0 361H500V237H0V361Z" />
<glyph unicode="&#x2014;" glyph-name="emdash" horiz-adv-x="1000" d="M0 361H1000V237H0V361Z" />
<glyph unicode="&#x2018;" glyph-name="quoteleft" horiz-adv-x="243" d="M44 495Q42 509 41 524T40 546Q40 613 64 673T123 776L228 752Q209 709 198 655T186 552Q186 550 186 544T186 529T187 511T189 495H44Z" />
<glyph unicode="&#x2019;" glyph-name="quoteright" horiz-adv-x="243" d="M199 767Q201 753 202 738T203 716Q203 649 179 589T120 486L15 510Q34 553 45 607T57 710Q57 712 57 718T57 733T56 751T54 767H199Z" />
<glyph unicode="&#x201a;" glyph-name="quotesinglbase" horiz-adv-x="243" d="M199 154Q201 140 202 125T203 103Q203 36 179 -24T120 -127L15 -103Q34 -60 45 -6T57 97Q57 99 57 105T57 120T56 138T54 154H199Z" />
<glyph unicode="&#x201c;" glyph-name="quotedblleft" horiz-adv-x="454" d="M44 495Q42 509 41 524T40 546Q40 613 64 673T123 776L224 753Q205 710 194 656T182 552Q182 550 182 544T182 529T183 511T185 495H44ZM259 495Q257 509 256 524T255 546Q255 613 279
673T338 776L439 753Q420 710 409 656T397 552Q397 550 397 544T397 529T398 511T400 495H259Z" />
<glyph unicode="&#x201d;" glyph-name="quotedblright" horiz-adv-x="454" d="M410 767Q412 753 413 738T414 716Q414 649 390 589T331 486L230 509Q249 552 260 606T272 710Q272 712 272 718T272 733T271 751T269 767H410ZM195 767Q197 753 198 738T199 716Q199
649 175 589T116 486L15 509Q34 552 45 606T57 710Q57 712 57 718T57 733T56 751T54 767H195Z" />
<glyph unicode="&#x201e;" glyph-name="quotedblbase" horiz-adv-x="454" d="M410 154Q412 140 413 125T414 103Q414 36 390 -24T331 -127L230 -104Q249 -61 260 -7T272 97Q272 99 272 105T272 120T271 138T269 154H410ZM195 154Q197 140 198 125T199 103Q199
36 175 -24T116 -127L15 -104Q34 -61 45 -7T57 97Q57 99 57 105T57 120T56 138T54 154H195Z" />
<glyph unicode="&#x2022;" glyph-name="bullet" horiz-adv-x="364" d="M326 353Q326 324 316 299T287 254T242 223T182 211Q149 211 123 222T77 253T48 298T38 353Q38 381 48 407T77 452T122 483T182 495Q215 495 241 484T287 453T316 407T326 353Z" />
<glyph unicode="&#x2039;" glyph-name="guilsinglleft" horiz-adv-x="327" d="M196 284L297 97L184 44L20 284L184 524L297 471L196 284Z" />
<glyph unicode="&#x203a;" glyph-name="guilsinglright" horiz-adv-x="327" d="M30 471L143 524L307 284L143 44L30 97L131 284L30 471Z" />
</font>
</defs>
</svg>
